» » Phoebe Snow - Against The Grain
Phoebe Snow - Against The Grain album download
Phoebe Snow - Against The Grain album download
Performer: Phoebe Snow
Title: Against The Grain
Country: US
Released: 1978
Style: Soft Rock
Rating: 4.3/5
Format: MP3 FLAC MP3 ASF WMA AC3 MP1 MP4 RA
FLAC size: 1141 mb | MP3 size: 1628 mb | WMA size: 1105 mb
Genre: Rock / Pop

Against the Grain is the fifth album by singer-songwriter Phoebe Snow, released in 1978.

Deutsch English Español Français Italiano 日本語. More Images.

Features Song Lyrics for Phoebe Snow's Against the Grain album. Phoebe Snow - Against the Grain Album Lyrics. 1. Every Night Lyrics. 2. In My Life Lyrics. Phoebe Snow Lyrics provided by SongLyrics. Do you like this album?

Songs written by Phoebe Snow, except where noted. Every Night" (Paul McCartney) - 3:31. Do Right Woman, Do Right Man" (Chips Moman, Dan Penn) - 4:08. He's Not Just Another Man" (Clyde Wilson, Brian Holland) - 2:59. In My Life" (Patti Austin) - 5:02. You Have Not Won" - 4:22. Phoebe Snow - acoustic guitar, lead vocals, background vocals. Doug Stegmeyer - bass guitar. Richard Tee - electric piano. Co-Producers: Phil Ramone; Barry Beckett.

1978 studio album by Phoebe Snow. Studio album by. Phoebe Snow. Songs written by Phoebe Snow, except where noted.

Is Against The Grain the best album by Phoebe Snow? BestEverAlbums. com brings together thousands of 'greatest ever album' charts and calculates an overall ranking. This album At A Glance. Against The Grain by Phoebe Snow (1978) Overall rank: 72,600th. Accolades: Top albums of 1978 (730th). Top albums of the 1970s (7,190th). Best albums of all time (72,600th).

KBPS stands for kilobits per second and the number of KBPS represents the audio quality of the MP3s. Here's the range of quality: 128 kbps good, 192 kbps great, 256 kbps awesome and 320 kbps perfect. 1 voted, Please vote. The Best Of Phoebe Snow 1981. The Very Best Of Phoebe Snow 2001.

Album by Phoebe Snow. Do Right Woman, Do Right Man. He's Not Just Another Man. Random Time. You Have Not Won. Mama Don't Break Down. The Married Men. Keep a Watch on the Shoreline.

Listen to Phoebe Snow Radio featuring songs from Against the Grain free online. Слушать бесплатное интернет-радио, спорт, музыку, новости, разговорное и подкасты. События в прямом эфире, трансляции игр NFL, MLB, NBA, NHL, университетских команд и матчи Премьер-лиги. CNN, MSNBC, Fox News, ESPN, BBC, NPR.

Tracklist

Every Night
Do Right Woman, Do Right Man
He's Not Just Another Man
Random Time
In My Life
You Have Not Won
Mama Don't Break Down
Oh L.A.
The Married Men
Keep A Watch On The Shoreline

Versions

Category Artist Title (Format) Label Category Country Year
JC 35456 Phoebe Snow Against The Grain ‎(LP) Columbia JC 35456 US 1978
PC 35456 Phoebe Snow Against The Grain ‎(LP) Columbia PC 35456 Canada 1978
ASF 2210 Phoebe Snow Against The Grain ‎(LP) CBS ASF 2210 South Africa 1978
S CBS 82915 Phoebe Snow Against The Grain ‎(LP) CBS S CBS 82915 UK 1978
SBP 237250 Phoebe Snow Against The Grain ‎(LP) CBS SBP 237250 Australia 1978
CBS 82915 Phoebe Snow Against The Grain ‎(LP) CBS CBS 82915 Europe 1978
25AP 1002 Phoebe Snow Against The Grain ‎(LP, Album) CBS/Sony 25AP 1002 Japan 1978
25AP 1002 Phoebe Snow Against The Grain ‎(LP, Album, Promo) CBS/Sony 25AP 1002 Japan 1978
JC 35456 Phoebe Snow Against The Grain ‎(LP, Promo) Columbia JC 35456 US 1978
SRCS 6359 Phoebe Snow Against The Grain ‎(CD, Album, RE) Sony Records SRCS 6359 Japan 1993
WOU 4456 Phoebe Snow Against The Grain ‎(CD, Album) Wounded Bird Records WOU 4456 US 2007
SICP 3212 Phoebe Snow Against The Grain ‎(CD, Album, Ltd, RM, Pap) Sony Music SICP 3212 Japan 2011
SICP-5440 Phoebe Snow Against The Grain ‎(CD, Album, Ltd, RE, RM) Sony Records Int'l SICP-5440 Japan 2017
463038 2 Phoebe Snow Against The Grain ‎(CD, Album, RE) CBS 463038 2 Australia Unknown


Comments (1)
Itiannta
foobar2000 1.3.17 / Dynamic Range Meter 1.1.1log date: 2019-03-17 17:35:08--------------------------------------------------------------------------------Analyzed: Phoebe Snow / Against the Grain [AU 1990s CD]--------------------------------------------------------------------------------DR Peak RMS Duration Track--------------------------------------------------------------------------------DR12 -0.99 dB -15.76 dB 3:36 01-Every NightDR13 -1.74 dB -18.29 dB 4:19 02-Do Right Woman, Do Right ManDR13 -1.34 dB -17.36 dB 3:06 03-He's Not Just Another ManDR13 -2.22 dB -18.56 dB 3:45 04-Random TimeDR13 -1.53 dB -17.26 dB 5:06 05-In My LifeDR13 -1.32 dB -16.42 dB 4:28 06-You Have Not WonDR13 -1.36 dB -17.21 dB 3:11 07-Mama Don't Break DownDR13 -3.29 dB -20.27 dB 3:25 08-Oh, L.A.DR14 -1.29 dB -17.98 dB 3:49 09-The Married MenDR13 -0.20 dB -17.91 dB 4:44 10-Keep a Watch On the Shoreline--------------------------------------------------------------------------------Number of tracks: 10Official DR value: DR13Samplerate: 44100 HzChannels: 2Bits per sample: 16Bitrate: 837 kbpsCodec: ALAC================================================================================