» » Stanley Cowell Trio - Dancers In Love
Stanley Cowell Trio - Dancers In Love album download
Stanley Cowell Trio - Dancers In Love album download
Performer: Stanley Cowell Trio
Title: Dancers In Love
Country: Japan
Released: 2009
Style: Bop
Rating: 4.2/5
Format: MP3 FLAC AC3 MMF AA AAC WAV MIDI MOD
FLAC size: 1987 mb | MP3 size: 1611 mb | WMA size: 1592 mb
Genre: Jazz

Special Limited Version 24kt Golddisc. Mixed and Mastered Venus 24bit Hyper Magnum Sound Stereo. Recorded at Sound on Sound Studio in New York on June 17, 1999.

wav" WAVE TRACK 05 AUDIO TITLE "S. roix" PERFORMER "Stanley Cowell Trio" INDEX 01 00:00:00 FILE "06. Confirmation. wav" WAVE TRACK 06 AUDIO TITLE "Confirmation" PERFORMER "Stanley Cowell Trio" INDEX 01 00:00:00 FILE "07. Dancers In Love. wav" WAVE TRACK 07 AUDIO TITLE "Dancers In Love" PERFORMER "Stanley Cowell Trio" INDEX 01 00:00:00 FILE "08. But Not For M. av" WAVE TRACK 08 AUDIO TITLE "But Not For Me" PERFORMER "Stanley Cowell Trio" INDEX 01 00:00:00 FILE "09.

Stanley Cowell Trio (Tarus Mateen, Nasheet Waits) - Dancers in Love {Venus, Japan} 2000(FLAC)/09. As The Sun Goes Down. Stanley Cowell Trio (Tarus Mateen, Nasheet Waits) - Dancers in Love {Venus, Japan} 2000(FLAC)/Cover. Stanley Cowell Trio (Tarus Mateen, Nasheet Waits) - Dancers in Love {Venus, Japan} 2000(FLAC)/Stanley Cowell. Stanley Cowell Trio (Tarus Mateen, Nasheet Waits) - Dancers in Love {Venus, Japan} 2000(FLAC)/cover - alternative.

Dancers In Love, 2015. Dancers In Love, 2015. I Never Dreamed, 06:35.

Illusion Suite is an album by American pianist and composer Stanley Cowell recorded in 1972 and released on the ECM label. and Hopps' impressionistic drumming is head clearing. Hopps plays as if he has four hands with a drumstick in each, Cowell's rolling piano chords are matched in fever by Clarke's bass work". All compositions by Stanley Cowell.

Stanley Cowell Trio - Sienna (SteepleChase (D) SCCD-31253). Stanley Cowell - Back To The Beautiful (Concord Jazz CCD-4398). Stanley Cowell Trio - Departure (SteepleChase (D) SCCD-31275). Stanley Cowell - Live At Maybeck Recital Hall, Volume Five (Concord Jazz CCD-4431). Stanley Cowell Trio - Close To You Alone (DIW (J) DIW-6003). 1991 (age 50). Stanley Cowell Trio - Games (SteepleChase (D) SCCD-31293). Stanley Cowell Trio - Bright Passion (SteepleChase (D) SCCD-31328). Stanley Cowell Trio - Dancers In Love (Venus (J) TKCV-35085). 2010 (age 69). Stanley Cowell - Prayer For Peace (SteepleChase (D) SCCD-31704).

Tracklist Hide Credits

1 A Whole New World
Written-By – Menken*, Rice*
7:47
2 Ole Texas
Written-By – American Folk Song*, Trad*
5:21
3 Charleston Rag
Written-By – E. Blake*
4:26
4 I Never Dreamed
Written-By – S. Cowell*
6:55
5 St. Croix
Written-By – S. Cowell*
4:48
6 Confirmation
Written-By – C. Parker*
6:31
7 Dancers In Love
Written-By – D. Ellington*
2:12
8 But Not For Me
Written-By – G. Gershwin*
6:01
9 As The Sun Goes Down
Written-By – South African Trad*
4:45

Companies, etc.

  • Manufactured By – Venus Records, Inc.
  • Recorded At – Sound On Sound, New York
  • Phonographic Copyright (p) – Venus Records, Inc.
  • Copyright (c) – Venus Records, Inc.

Credits

  • Bass – Tarus Mateen
  • Design – Taz
  • Drums – Nasheet Waits
  • Engineer – Jason Standard
  • Engineer [Assistant] – Victor Mancusi
  • Mastered By – Tetsuo Hara
  • Mixed By – Tetsuo Hara
  • Photography By – Jack Frisch
  • Piano – Stanley Cowell
  • Producer – Tetsuo Hara, Todd Barkan

Notes

Issued in a replica mini-LP paper sleeve with obi strip and insert in Japanese.

Mixed and Mastered Venus 24bit Hyper Magnum Sound.

Recorded at Sound on Sound Studio in New York on June 17, 1999.

Barcode and Other Identifiers

  • Barcode: 4 571292 540667
  • Rights Society: JASRAC

Other versions

Category Artist Title (Format) Label Category Country Year
TKCV-35085 Stanley Cowell Trio Dancers In Love ‎(CD, Album) Venus Records TKCV-35085 Japan 2000
TKCV-35518 Stanley Cowell Trio Dancers In Love ‎(CD, Album, Ltd, Pap) Venus Records TKCV-35518 Japan 2000
TKCV-35145 Stanley Cowell Trio Dancers In Love ‎(CD, Album, Ltd, Pap) Venus Records TKCV-35145 Japan 2001
VHCD-2048 Stanley Cowell Trio Dancers In Love ‎(CD, Album, Ltd, RE) Venus Records VHCD-2048 Japan 2008
TKJV-19089 Stanley Cowell Trio Dancers In Love ‎(LP, Album, 180) Venus Records TKJV-19089 Japan Unknown